Benutzeravatar
TheJoker
Thema Autor
Beiträge: 1247
Registriert: 17. Mai 2010 18:46
Wohnort: Bonn
Kontaktdaten:

Mal wieder: Frank Zappa

20. Mai 2014 20:26

Für mich „der“ Musiker des 20. Jahrhunderts,
günstig durch Ebay an eine schöne Doppel-CD gekommen die noch fehlte:

„You can’t do this in Stage anymore Vol 2.“

http://en.wikipedia.org/wiki/You_Can't_Do_That_on_Stage_Anymore,_Vol._2

Hervorragend. selbst als Remaster von 2012. Keine Overs....

----------------------------------------------------------------------------------------------
Analyzed folder: /Users/jh/Music/iTunes/Jokers_Musik/Music/Frank Zappa/You Can't Do That On Stage Anymore, Vol. 2 The Helsinki Concert
----------------------------------------------------------------------------------------------
DR Peak RMS Filename
----------------------------------------------------------------------------------------------

DR12 -0.69 dB -15.90 dB 01_Approximate.m4a
DR14 -1.77 dB -17.76 dB 01_Tush Tush Tush (A Token Of My Extreme).m4a
DR13 -0.13 dB -17.45 dB 02_Dupree's Paradise.m4a
DR12 -1.30 dB -16.23 dB 02_Stinkfoot.m4a
DR12 -1.77 dB -15.13 dB 03_Inca Roads.m4a
DR11 -1.20 dB -14.74 dB 03_Satumaa (Finnish Tango).m4a
DR12 -0.25 dB -15.06 dB 04_RDNZL.m4a
DR12 -0.97 dB -15.04 dB 04_T'Mershi Duween.m4a
DR11 -1.44 dB -14.09 dB 05_The Dog Breath Variations.m4a
DR11 -1.84 dB -14.79 dB 05_Village Of The Sun.m4a
DR12 -0.63 dB -14.03 dB 06_Echidna's Arf (Of You).m4a
DR11 -1.88 dB -14.04 dB 06_Uncle Meat.m4a
DR13 -1.94 dB -18.62 dB 07_Building A Girl.m4a
DR12 -1.49 dB -15.03 dB 07_Don't You Ever Wash That Thing?.m4a
DR11 -1.35 dB -14.52 dB 08_Montana (Whipping Floss).m4a
DR10 -1.85 dB -13.88 dB 08_Pygmy Twylyte.m4a
DR9 -2.51 dB -13.56 dB 09_Big Swifty.m4a
DR11 -1.77 dB -15.76 dB 09_Room Service.m4a
DR11 -1.77 dB -15.25 dB 10_The Idiot Bastard Son [Live].m4a
DR12 -1.31 dB -14.08 dB 11_Cheepnis.m4a
----------------------------------------------------------------------------------------------

Number of files: 20
Official DR value: DR12

==============================================================================================
 
muggel

Re: Mal wieder: Frank Zappa

20. Mai 2014 20:47

Hallo,
da hat ja einer einen feinen Musikgeschmack :Bier:
Die fehlt mir leider, als Vinylausgabe in meinem Plattenschrank.
Die erste, die gelbe war schon immer einer meiner Favoriten!
Wahnsinns Gitarrenriffs!!

Zappaeske Grüße
Peter
 
Tony-Montana
Beiträge: 103
Registriert: 14. Jan 2013 19:11

Re: Mal wieder: Frank Zappa

20. Mai 2014 21:07

Hast du evtl. einen Link zu dem Verkauf? Bin mir unsicher welches es der vielen genau ist :-)
 
 
Benutzeravatar
derschwarzeritter
Beiträge: 79
Registriert: 5. Feb 2015 22:55
Wohnort: Berlin

Re: Mal wieder: Frank Zappa

7. Feb 2015 07:59

TheJoker hat geschrieben:
Für mich „der“ Musiker des 20. Jahrhunderts,......


Jo!!!!

Ein Tip, unter den vielen Neuveröffentlichungen ist eine, die besonders gut ist:

Frank Zappa – Imaginary Diseases

Schwer zu bekommen, immer teuer, aber wirklich Klasse.
Gilt als Fortsetzung und Abschluss der Waka Jawaka - Grand Wazoo Reihe
 
Benutzeravatar
derschwarzeritter
Beiträge: 79
Registriert: 5. Feb 2015 22:55
Wohnort: Berlin

Re: Mal wieder: Frank Zappa

14. Mär 2015 19:12

von der QUAUDIOPHILIAC - Chunga Basement
https://www.youtube.com/watch?v=cZSDu_mJ6qI

von der IMAGINARY DISEASES -
DC BOOGIE https://www.youtube.com/watch?v=avs6BVIdIuw
IMAGINARY DISEASES https://www.youtube.com/watch?v=EvLnf_SouF4
 
Benutzeravatar
bucky
Beiträge: 1383
Registriert: 22. Nov 2009 19:47
Wohnort: im Inntal

Re: Mal wieder: Frank Zappa

14. Mär 2015 20:47

avantgarde halt. darf jeder einzelne davon halten was er will. zweifellos erstklassiger gitarrist und kreativer geist. davon abgesehen hat er natuerlich auch von seinen musikern profitiert - in mindestens zweierlei hinsicht ;) . vermutlich trifft "the indian of the group" den nagel auf den kopf...die letzten zwei minuten anschauen. https://www.youtube.com/watch?v=8_ApXjLB00o
hm. jetzt ueberleg ich nur, ob ich in ein paar tagen vielleicht nicht doch zum konzert von Eugene Chadbourne + Schroeder gehen sollte...sollte ich wohl tun.
gruesse
bucky
...and DON`T FORGET TO BOOGIE!
:Peace:
 
Benutzeravatar
derschwarzeritter
Beiträge: 79
Registriert: 5. Feb 2015 22:55
Wohnort: Berlin

Re: Mal wieder: Frank Zappa

14. Mär 2015 21:20

bucky hat geschrieben:
1- vermutlich trifft "the indian of the group" den nagel auf den kopf...die letzten zwei minuten anschauen. https://www.youtube.com/watch?v=8_ApXjLB00o
2- jetzt ueberleg ich nur, ob ich in ein paar tagen vielleicht nicht doch zum konzert von Eugene Chadbourne + Schroeder gehen sollte...

Zu 1. - tut er
Zu 2. - nicht lange überlegen, hingehen!!!!

hier, eines meiner Lieblingslieder aus der Mothers of Invention Ära, zeitlos schön, Musik für die Ewigkeit
https://www.youtube.com/watch?v=mHB9VO4 ... axGEFmBT-L

Wer ist online?

Mitglieder in diesem Forum: 0 Mitglieder und 2 Gäste